<?xml version="1.0" standalone="no"?>
<!DOCTYPE svg PUBLIC "-//W3C//DTD SVG 1.1//EN" "http://www.w3.org/Graphics/SVG/1.1/DTD/svg11.dtd" >
<svg xmlns="http://www.w3.org/2000/svg" xmlns:xlink="http://www.w3.org/1999/xlink" version="1.1">
<metadata>
Created by FontForge 20190801 at Sun Aug 28 20:08:38 2016
 By www-data
Typeface (c) (Tugcu Design Co). 2016. All Rights Reserved
</metadata>
<defs>
<font id="EquinoxBold" horiz-adv-x="1635" >
  <font-face 
    font-family="EquinoxBold"
    font-weight="400"
    font-stretch="normal"
    units-per-em="2048"
    panose-1="2 0 5 0 0 0 0 0 0 0"
    ascent="1638"
    descent="-410"
    x-height="1429"
    cap-height="1435"
    bbox="100 -231 1907.76 1716"
    underline-thickness="150"
    underline-position="-292"
    unicode-range="U+001D-F002"
  />
<missing-glyph horiz-adv-x="1024" 
 />
    <glyph glyph-name=".notdef" horiz-adv-x="1024" 
 />
    <glyph glyph-name=".null" horiz-adv-x="0" 
 />
    <glyph glyph-name=".null" horiz-adv-x="0" 
 />
    <glyph glyph-name="nonmarkingreturn" horiz-adv-x="508" 
 />
    <glyph glyph-name="space" unicode=" " horiz-adv-x="508" 
 />
    <glyph glyph-name="space" unicode="&#xa0;" horiz-adv-x="508" 
 />
    <glyph glyph-name="exclam" unicode="!" horiz-adv-x="383" 
d="M127 156q-27 -27 -27 -65q0 -37 27 -64t64 -27q38 0 65 27t27 64q0 38 -27 65t-65 27t-64 -27zM127 1408q-27 -27 -27 -64v-1018q0 -38 27 -64q26 -27 64 -27t65 27q27 26 27 64v1018q0 37 -27 64t-65 27t-64 -27z" />
    <glyph glyph-name="quotedbl" unicode="&#x22;" horiz-adv-x="513" 
d="M230 1365q0 27 -19 46t-46 19t-46 -19t-19 -46v-105q0 -27 19 -46t46 -19t46 19t19 46v105zM283 1260q0 -27 19 -46t46 -19t46 19t19 46v105q0 27 -19 46t-46 19t-46 -19t-19 -46v-105z" />
    <glyph glyph-name="numbersign" unicode="#" horiz-adv-x="1478" 
d="M531 574l54 287h336l-54 -287h-336zM870 0q32 0 58 21q25 21 31 54l60 316h190q38 0 64 27q27 27 27 65q0 37 -27 64q-26 27 -64 27h-156l54 287h180q38 0 65 27q26 26 26 64t-26 65q-27 27 -65 27h-146l53 283q7 37 -14 68q-22 31 -59 38t-68 -14t-38 -59l-60 -316h-336
l53 283q7 37 -14 68t-59 38q-37 7 -68 -14t-38 -59l-60 -316h-163q-38 0 -65 -27t-27 -65t27 -64q27 -27 65 -27h129l-54 -287h-154q-38 0 -64 -27q-27 -27 -27 -64q0 -38 27 -65q26 -27 64 -27h120l-53 -283q-7 -37 14 -68q22 -31 59 -38q8 -2 17 -2q33 0 58 21t32 54
l59 316h336l-53 -283q-7 -37 14 -68q22 -31 59 -38q8 -2 17 -2z" />
    <glyph glyph-name="dollar" unicode="$" horiz-adv-x="1033" 
d="M609 1092q59 0 100 -42q41 -41 41 -100q0 -38 27 -64q27 -27 65 -27t64 27q27 26 27 64q0 133 -93 228q-94 94 -226 96v70q0 37 -27 64t-64 27q-38 0 -65 -27t-27 -64v-70h-7q-134 0 -229 -95t-95 -229t95 -229t229 -95h185q59 0 100 -41q41 -42 41 -100q0 -59 -41 -100
q-41 -42 -100 -42h-185q-58 0 -100 42q-41 41 -41 100q0 38 -27 64q-27 27 -65 27t-64 -27q-27 -26 -27 -64q0 -134 95 -229t229 -95h7v-70q0 -38 27 -64q27 -27 65 -27q37 0 64 27q27 26 27 64v70q132 2 226 96q93 95 93 228q0 134 -95 229t-229 95h-185q-58 0 -100 41
q-41 42 -41 100q0 59 41 100q42 42 100 42h185z" />
    <glyph glyph-name="percent" unicode="%" horiz-adv-x="1181" 
d="M245 797q-15 15 -15 35q0 21 15 35q15 15 35 15q21 0 35 -15q15 -14 15 -35q0 -20 -15 -35q-14 -14 -35 -14q-20 0 -35 14zM407 959q-53 53 -127 53t-127 -53q-53 -52 -53 -127q0 -74 53 -127t127 -53t127 53t53 127q0 75 -53 127zM866 664q14 14 35 14q20 0 35 -14
q14 -15 14 -35q0 -21 -14 -35q-15 -15 -35 -15q-21 0 -35 15q-15 14 -15 35q0 20 15 35zM1028 756q-53 53 -127 53q-75 0 -127 -53q-53 -53 -53 -127q0 -75 53 -127q52 -53 127 -53q74 0 127 53q53 52 53 127q0 74 -53 127zM473 0q33 0 58 21q26 21 32 54l235 1252
q7 37 -15 68q-21 31 -58 38t-69 -14q-31 -21 -38 -59l-235 -1252q-7 -37 15 -68q21 -31 58 -38q9 -2 17 -2z" />
    <glyph glyph-name="ampersand" unicode="&#x26;" horiz-adv-x="1244" 
d="M547 0q168 2 293 115q124 112 144 276h68q38 0 65 27t27 65q0 37 -27 64t-65 27h-313q-38 0 -64 -27q-27 -27 -27 -64q0 -38 27 -65q26 -27 64 -27h60q-19 -89 -90 -148q-72 -60 -165 -60q-108 0 -185 77q-76 77 -76 185t76 185q77 77 186 77h29q38 0 65 27q27 26 27 64
t-27 65t-65 27h-52q-75 0 -128 52q-52 53 -52 128t52 128q53 53 128 53h24q74 0 127 -53t53 -128q0 -38 27 -64q27 -27 64 -27q38 0 65 27q27 26 27 64q0 150 -107 257q-106 106 -256 106h-24q-150 0 -257 -106q-106 -107 -106 -257q0 -161 120 -269q-179 -134 -179 -356
q0 -183 129 -313q128 -130 311 -132h7z" />
    <glyph glyph-name="quotesingle" unicode="'" horiz-adv-x="330" 
d="M230 1365q0 27 -19 46t-46 19t-46 -19t-19 -46v-105q0 -27 19 -46t46 -19t46 19t19 46v105z" />
    <glyph glyph-name="parenleft" unicode="(" horiz-adv-x="717" 
d="M283 723q0 436 308 743q26 27 26 65t-26 65q-27 26 -65 26t-64 -26q-178 -178 -272 -409q-90 -223 -90 -464q0 -242 90 -465q94 -231 272 -408q26 -27 64 -27t65 27q26 26 26 64t-26 65q-308 307 -308 744z" />
    <glyph glyph-name="parenright" unicode=")" horiz-adv-x="717" 
d="M191 -180q38 0 65 27q177 177 271 408q90 223 90 465q0 241 -90 464q-94 231 -271 409q-27 26 -65 26t-64 -26q-27 -27 -27 -65t27 -65q308 -308 308 -743q0 -436 -308 -744q-27 -27 -27 -65t27 -64q26 -27 64 -27z" />
    <glyph glyph-name="asterisk" unicode="*" horiz-adv-x="442" 
d="M194 1198q0 -28 27 -28q28 0 28 28v48l40 -27q7 -5 15 -5q15 0 23 13q15 23 -8 38l-48 32l48 33q23 15 8 38t-38 8l-40 -27v48q0 28 -28 28q-27 0 -27 -28v-48l-41 27q-23 15 -38 -8t8 -38l48 -33l-48 -32q-23 -15 -8 -38q8 -13 23 -13q8 0 15 5l41 27v-48z" />
    <glyph glyph-name="plus" unicode="+" horiz-adv-x="826" 
d="M504 620h131q38 0 64 27q27 26 27 64t-27 65q-26 26 -64 26h-131v131q0 38 -26 64q-27 27 -65 27t-65 -27q-26 -26 -26 -64v-131h-131q-38 0 -64 -26q-27 -27 -27 -65t27 -64q26 -27 64 -27h131v-131q0 -38 26 -64q27 -27 65 -27t65 27q26 26 26 64v131z" />
    <glyph glyph-name="comma" unicode="," horiz-adv-x="383" 
d="M127 156q-27 -27 -27 -64v-154q0 -38 27 -64q26 -27 64 -27t65 27q27 26 27 64v154q0 37 -27 64t-65 27t-64 -27z" />
    <glyph glyph-name="hyphen" unicode="-" horiz-adv-x="826" 
d="M699 780q-26 27 -64 27h-444q-38 0 -64 -27q-27 -27 -27 -65t27 -64q26 -27 64 -27h444q38 0 64 27q27 26 27 64t-27 65z" />
    <glyph glyph-name="hyphen" unicode="&#xad;" horiz-adv-x="826" 
d="M699 780q-26 27 -64 27h-444q-38 0 -64 -27q-27 -27 -27 -65t27 -64q26 -27 64 -27h444q38 0 64 27q27 26 27 64t-27 65z" />
    <glyph glyph-name="period" unicode="." horiz-adv-x="383" 
d="M100 91q0 -37 27 -64t64 -27q38 0 65 27t27 64q0 38 -27 65t-65 27t-64 -27q-27 -27 -27 -65z" />
    <glyph glyph-name="slash" unicode="/" horiz-adv-x="628" 
d="M380 1419q-32 -21 -38 -59l-235 -1252q-7 -37 14 -68t59 -38q8 -2 17 -2q32 0 57 21q26 21 32 53l235 1253q7 37 -14 68q-22 31 -59 38t-68 -14z" />
    <glyph glyph-name="zero" unicode="0" horiz-adv-x="1131" 
d="M849 466q0 -117 -83 -200t-200 -83q-96 0 -172 58l447 792q8 -31 8 -64v-503zM283 969q0 117 83 200t200 83q88 0 161 -50l-441 -781q-3 22 -3 45v503zM1031 969q0 193 -136 329q-137 137 -329 137q-193 0 -329 -137q-137 -136 -137 -329v-503q0 -193 137 -329
q136 -137 329 -137q192 0 329 137q136 136 136 329v503z" />
    <glyph glyph-name="one" unicode="1" horiz-adv-x="513" 
d="M127 1279q26 -27 64 -27h39v-1161q0 -38 27 -64q27 -27 65 -27t64 27q27 26 27 64v1253q0 37 -27 64q-26 27 -64 27h-131q-38 0 -64 -27q-27 -27 -27 -64q0 -38 27 -65z" />
    <glyph glyph-name="two" unicode="2" horiz-adv-x="1166" 
d="M525 296l172 172l39 39q94 95 139 145q106 117 131 235q34 156 -40 296q-55 105 -156 172q-99 66 -215 78q-123 12 -233 -41q-107 -51 -176 -151q-67 -96 -81 -211q-5 -37 18 -67q24 -30 61 -35q38 -4 68 19q29 23 34 61q9 70 50 129q42 60 105 91q64 30 136 23
q71 -7 132 -48q62 -41 95 -105q43 -82 23 -173q-14 -70 -87 -151q-43 -47 -134 -138l-39 -39q-57 -58 -171 -172l-25 -24q-101 -101 -196 -197q-26 -27 -47 -48l-4 -4q-6 -7 -11 -15q-12 -22 -12 -47q0 -7 1 -14q4 -23 19 -41q6 -9 15 -16q23 -18 52 -19h787q38 0 65 27
q26 26 26 64t-26 65q-27 27 -65 27h-563q42 43 88 88z" />
    <glyph glyph-name="three" unicode="3" horiz-adv-x="1113" 
d="M530 183q-6 0 -13 -1q-6 1 -13 1q-91 0 -156 65t-65 156q0 38 -27 65t-65 27t-64 -27q-27 -27 -27 -65q0 -167 119 -285q118 -119 285 -119q7 0 13 1q7 -1 13 -1h79q167 0 286 119q118 118 118 285q0 192 -149 313q149 122 149 314q0 167 -118 285q-119 119 -286 119h-79
q-6 0 -13 -1q-6 1 -13 1q-167 0 -285 -119q-119 -118 -119 -285q0 -38 27 -65q26 -27 64 -27t65 27t27 65q0 91 65 156t156 65q7 0 13 1q7 -1 13 -1h79q91 0 156 -65t65 -156q0 -92 -65 -157t-156 -65h-79q-37 0 -64 -27t-27 -65q0 -37 27 -64t64 -27h79q91 0 156 -65
t65 -157q0 -91 -65 -156t-156 -65h-79z" />
    <glyph glyph-name="four" unicode="4" horiz-adv-x="1093" 
d="M902 417q38 0 64 27q27 27 27 65t-27 64q-26 27 -64 27h-170v91q0 38 -26 65q-27 27 -65 27t-65 -27q-26 -27 -26 -65v-91h-242l136 727q7 37 -15 68q-21 31 -58 38t-69 -14q-31 -21 -38 -59l-156 -834q-8 -43 19 -76q28 -33 71 -33h352v-326q0 -38 26 -64q27 -27 65 -27
t65 27q26 26 26 64v326h170z" />
    <glyph glyph-name="five" unicode="5" horiz-adv-x="1009" 
d="M783 735q-127 126 -305 126h-195v391h484q38 0 65 27t27 65q0 37 -27 64t-65 27h-576q-38 0 -64 -27q-27 -27 -27 -64v-574q0 -38 27 -65q26 -27 64 -27h287q103 0 175 -72q73 -73 73 -176q0 -102 -73 -175q-72 -72 -175 -72h-287q-38 0 -64 -27q-27 -27 -27 -65t27 -64
q26 -27 64 -27h287q178 0 305 126q126 126 126 304t-126 305z" />
    <glyph glyph-name="six" unicode="6" horiz-adv-x="1061" 
d="M355 606q73 72 175 72q103 0 176 -72q72 -73 72 -176q0 -102 -72 -175q-73 -72 -176 -72q-102 0 -175 72q-72 73 -72 175q0 103 72 176zM835 735q-127 126 -305 126q-136 0 -247 -79v222q0 103 72 176q73 72 175 72q103 0 176 -72q72 -73 72 -176q0 -37 27 -64t65 -27
q37 0 64 27t27 64q0 178 -126 305q-127 126 -305 126t-304 -126q-126 -127 -126 -305v-574q0 -178 126 -304t304 -126t305 126q126 126 126 304t-126 305z" />
    <glyph glyph-name="seven" unicode="7" horiz-adv-x="1097" 
d="M191 1435q-38 0 -64 -27q-27 -27 -27 -64q0 -38 27 -65q26 -27 64 -27h578l-377 -1132q-12 -36 5 -69q17 -34 52 -46q15 -5 29 -5q66 0 87 62l417 1253q15 44 -12 82q-28 38 -74 38h-705z" />
    <glyph glyph-name="eight" unicode="8" horiz-adv-x="1119" 
d="M511 809q-89 0 -153 61q-64 62 -68 151q-4 93 61 161q67 70 164 70h89q97 0 164 -70q65 -68 61 -161q-4 -89 -68 -151q-64 -61 -153 -61h-97zM761 244q-64 -61 -153 -61h-97q-89 0 -153 61t-68 151q-4 93 61 161q67 70 164 70h89q97 0 164 -70q65 -68 61 -161
q-4 -90 -68 -151zM511 0h97q162 0 280 113q117 112 124 274q7 171 -112 295q-18 19 -37 35q13 10 25 22q117 112 124 274q7 171 -112 296q-121 126 -296 126h-89q-175 0 -296 -126q-119 -125 -112 -296q7 -162 124 -274q12 -12 25 -22q-19 -16 -37 -35q-119 -124 -112 -295
q7 -162 124 -274q118 -113 280 -113z" />
    <glyph glyph-name="nine" unicode="9" horiz-adv-x="1061" 
d="M355 829q-72 73 -72 175q0 103 72 176q73 72 175 72q103 0 176 -72q72 -73 72 -176q0 -102 -72 -175q-73 -72 -176 -72q-102 0 -175 72zM778 91q0 -38 27 -64q27 -27 65 -27q37 0 64 27q27 26 27 64v913q0 178 -126 305q-127 126 -305 126t-304 -126q-126 -127 -126 -305
t126 -304t304 -126q137 0 248 79v-562z" />
    <glyph glyph-name="colon" unicode=":" horiz-adv-x="383" 
d="M127 156q-27 -27 -27 -65q0 -37 27 -64t64 -27q38 0 65 27t27 64q0 38 -27 65t-65 27q-37 0 -64 -27zM127 782q-27 -27 -27 -65q0 -37 27 -64q26 -27 64 -27t65 27t27 64q0 38 -27 65t-65 27t-64 -27z" />
    <glyph glyph-name="semicolon" unicode=";" horiz-adv-x="383" 
d="M127 795q-27 -27 -27 -65q0 -37 27 -64t64 -27q38 0 65 27t27 64q0 38 -27 65t-65 27q-37 0 -64 -27zM127 154q-27 -27 -27 -64v-154q0 -38 27 -64q26 -27 64 -27t65 27q27 26 27 64v154q0 37 -27 64t-65 27t-64 -27z" />
    <glyph glyph-name="semicolon" unicode="&#x37e;" horiz-adv-x="383" 
d="M127 795q-27 -27 -27 -65q0 -37 27 -64t64 -27q38 0 65 27t27 64q0 38 -27 65t-65 27q-37 0 -64 -27zM127 154q-27 -27 -27 -64v-154q0 -38 27 -64q26 -27 64 -27t65 27q27 26 27 64v154q0 37 -27 64t-65 27t-64 -27z" />
    <glyph glyph-name="less" unicode="&#x3c;" horiz-adv-x="645" 
d="M457 1039q-38 2 -66 -23l-261 -235q-30 -27 -30 -68t30 -68l261 -235q26 -23 61 -23q41 0 68 30q25 28 23 66t-30 63l-185 167l185 167q28 25 30 63t-23 66t-63 30z" />
    <glyph glyph-name="equal" unicode="=" horiz-adv-x="826" 
d="M191 966q-38 0 -64 -27q-27 -27 -27 -65q0 -37 27 -64q26 -27 64 -27h444q38 0 64 27q27 27 27 64q0 38 -27 65q-26 27 -64 27h-444zM191 653q-38 0 -64 -27q-27 -27 -27 -65t27 -64q26 -27 64 -27h444q38 0 64 27q27 26 27 64t-27 65q-26 27 -64 27h-444z" />
    <glyph glyph-name="greater" unicode="&#x3e;" horiz-adv-x="646" 
d="M102 943q2 -38 30 -63l186 -167l-186 -167q-28 -25 -30 -63t23 -66q28 -30 68 -30q35 0 61 23l261 235q31 27 31 68t-31 68l-261 235q-28 25 -65 23q-38 -2 -64 -30q-25 -28 -23 -66z" />
    <glyph glyph-name="question" unicode="?" horiz-adv-x="1061" 
d="M835 1309q-127 126 -305 126t-304 -126q-126 -127 -126 -305q0 -37 27 -64q26 -27 64 -27t65 27t27 64q0 103 72 176q73 72 175 72q103 0 176 -72q72 -73 72 -176q0 -102 -72 -175q-73 -72 -176 -72q-37 0 -64 -27t-27 -65v-339q0 -38 27 -64q27 -27 64 -27q38 0 65 27
q27 26 27 64v258q146 31 242 149q97 118 97 271q0 178 -126 305zM466 156q-27 -27 -27 -65q0 -37 27 -64t64 -27q38 0 65 27t27 64q0 38 -27 65t-65 27q-37 0 -64 -27z" />
    <glyph glyph-name="at" unicode="@" horiz-adv-x="1638" 
d="M682 859q58 57 139 57t138 -57q57 -58 57 -139t-57 -138t-138 -57t-139 57q-57 57 -57 138t57 139zM1538 704v16q0 298 -210 508t-507 210t-508 -210q-209 -210 -210 -507q-3 -127 47 -257q8 -20 18 -41q39 -88 101 -162l7 -7q0 -1 1 -1v-1q16 -18 31 -34
q106 -109 243 -165q130 -53 271 -53q103 0 197 30q36 11 53 45q18 33 6 69q-11 36 -45 54q-33 17 -69 6q-168 -54 -344 18q-97 39 -174 116q-2 3 -3 4l-18 18q-4 5 -3 4q2 -2 -2 2q-35 40 -62 85q-90 156 -68 335q23 183 153 313q156 156 378 156q221 0 378 -156
q101 -101 138 -239q36 -133 3 -267q-24 -98 -82 -181l-113 113q54 90 54 195q0 157 -111 268t-267 111q-157 0 -268 -111t-111 -268q0 -156 111 -267t268 -111q105 0 195 54l183 -183q27 -27 64 -27q38 0 65 27q22 22 42 46v0q157 186 167 429q0 -3 1 6v10z" />
    <glyph glyph-name="A" unicode="A" horiz-adv-x="1498" 
d="M1378 128l-548 1252q-24 55 -84 55q-59 0 -83 -55l-548 -1252q-15 -35 -1 -70q13 -35 48 -50q18 -8 37 -8q59 0 83 55l464 1061l409 -933h-539q-38 0 -65 -27q-26 -27 -26 -65q0 -37 26 -64q27 -27 65 -27h678q50 0 77 41q27 42 7 87z" />
    <glyph glyph-name="B" unicode="B" horiz-adv-x="1296" 
d="M283 626h508q92 0 157 -65t65 -157q0 -91 -65 -156t-157 -65h-508v443zM283 1252h404q92 0 157 -65t65 -156q0 -92 -65 -157t-157 -65h-404v443zM791 0q168 0 286 119q119 118 119 285q0 113 -58 209q-57 93 -152 146q105 115 105 272q0 167 -118 285q-119 119 -286 119
h-496q-38 0 -64 -27q-27 -27 -27 -64v-1253q0 -38 27 -64q26 -27 64 -27h600z" />
    <glyph glyph-name="C" unicode="C" horiz-adv-x="1452" 
d="M1325 210q27 27 27 65t-27 64q-27 27 -65 27t-64 -27q-157 -156 -379 -156q-221 0 -378 156q-156 157 -156 378q0 222 156 379q157 156 378 156q222 0 379 -156q26 -27 64 -27t65 27q27 26 27 64t-27 65q-210 210 -508 210q-297 0 -507 -210t-210 -508q0 -297 210 -507
t507 -210q298 0 508 210z" />
    <glyph glyph-name="D" unicode="D" horiz-adv-x="1322" 
d="M1012 1225q-210 210 -508 210h-313q-38 0 -64 -27q-27 -27 -27 -64q0 -38 27 -65q26 -27 64 -27h313q222 0 378 -157q157 -156 157 -378q0 -221 -157 -378q-156 -156 -378 -156h-313q-38 0 -64 -27q-27 -27 -27 -65t27 -64q26 -27 64 -27h313q298 0 508 210t210 507
q0 298 -210 508z" />
    <glyph glyph-name="E" unicode="E" horiz-adv-x="1244" 
d="M1117 156q-27 27 -65 27h-861q-38 0 -64 -27q-27 -27 -27 -65t27 -64q26 -27 64 -27h861q38 0 65 27q27 26 27 64t-27 65zM191 1435q-38 0 -64 -27q-27 -27 -27 -64q0 -38 27 -65q26 -27 64 -27h861q38 0 65 27t27 65q0 37 -27 64t-65 27h-861zM191 809q-38 0 -64 -27
q-27 -27 -27 -65q0 -37 27 -64q26 -27 64 -27h861q38 0 65 27t27 64q0 38 -27 65t-65 27h-861z" />
    <glyph glyph-name="F" unicode="F" horiz-adv-x="1244" 
d="M256 27q27 26 27 64v535h561q37 0 64 27t27 64q0 38 -27 65t-64 27h-561v443h769q38 0 65 27t27 65q0 37 -27 64t-65 27h-861q-38 0 -64 -27q-27 -27 -27 -64v-1253q0 -38 27 -64q26 -27 64 -27t65 27z" />
    <glyph glyph-name="G" unicode="G" horiz-adv-x="1451" 
d="M817 0q298 0 508 210q26 27 26 65v442q0 38 -26 65q-27 27 -65 27h-469q-37 0 -64 -27t-27 -65q0 -37 27 -64t64 -27h378v-312q-158 -138 -369 -131t-361 156q-156 157 -156 378q0 222 156 379q157 156 378 156q222 0 379 -156q26 -27 64 -27t65 27q26 26 26 64t-26 65
q-210 210 -508 210q-297 0 -507 -210t-210 -508q0 -297 210 -507t507 -210z" />
    <glyph glyph-name="H" unicode="H" horiz-adv-x="1296" 
d="M256 27q27 26 27 64v535h730v-535q0 -38 27 -64q27 -27 64 -27q38 0 65 27q27 26 27 64v1253q0 37 -27 64t-65 27q-37 0 -64 -27t-27 -64v-535h-730v535q0 37 -27 64t-65 27t-64 -27q-27 -27 -27 -64v-1253q0 -38 27 -64q26 -27 64 -27t65 27z" />
    <glyph glyph-name="I" unicode="I" horiz-adv-x="383" 
d="M256 27q27 26 27 64v1253q0 37 -27 64t-65 27t-64 -27q-27 -27 -27 -64v-1253q0 -38 27 -64q26 -27 64 -27t65 27z" />
    <glyph glyph-name="J" unicode="J" horiz-adv-x="826" 
d="M569 157q157 157 157 378v809q0 37 -27 64q-26 27 -64 27t-65 -27q-26 -27 -26 -64v-809q0 -146 -104 -249q-103 -103 -249 -103q-38 0 -64 -27q-27 -27 -27 -65t27 -64q26 -27 64 -27q221 0 378 157z" />
    <glyph glyph-name="K" unicode="K" horiz-adv-x="1219" 
d="M100 91q0 -38 27 -64q26 -27 64 -27t65 27q27 26 27 64v456l108 98l568 -616q27 -29 67 -29q36 0 62 24q28 26 29 64q2 37 -24 65l-567 614l561 509q28 25 30 63t-23 66q-26 28 -63 30q-38 2 -66 -24l-682 -618v551q0 37 -27 64t-65 27t-64 -27q-27 -27 -27 -64v-1253z
" />
    <glyph glyph-name="L" unicode="L" horiz-adv-x="1270" 
d="M1078 0q38 0 65 27q27 26 27 64t-27 65t-65 27h-795v1161q0 37 -27 64t-65 27t-64 -27q-27 -27 -27 -64v-1253q0 -38 27 -64q26 -27 64 -27h887z" />
    <glyph glyph-name="M" unicode="M" horiz-adv-x="1531" 
d="M256 27q27 26 27 64v966l408 -575q27 -38 74 -38t75 38l408 575v-966q0 -38 27 -64q26 -27 64 -27t65 27q27 26 27 64v1253q0 66 -64 87q-64 20 -102 -35l-500 -703l-499 703q-39 55 -102 35q-64 -21 -64 -87v-1253q0 -38 27 -64q26 -27 64 -27t65 27z" />
    <glyph glyph-name="N" unicode="N" horiz-adv-x="1348" 
d="M256 27q27 26 27 64v985l801 -1040q28 -36 73 -36q15 0 29 5q62 21 62 86v1253q0 37 -27 64t-64 27q-38 0 -65 -27t-27 -64v-985l-801 1040q-40 52 -102 31t-62 -86v-1253q0 -38 27 -64q26 -27 64 -27t65 27z" />
    <glyph glyph-name="O" unicode="O" 
d="M1195 1095q157 -156 157 -378q0 -221 -157 -378q-156 -156 -378 -156q-221 0 -378 156q-156 157 -156 378q0 222 156 378q157 157 378 157q222 0 378 -157zM1325 210q210 210 210 507q0 298 -210 508t-508 210q-297 0 -507 -210t-210 -508q0 -297 210 -507t507 -210
q298 0 508 210z" />
    <glyph glyph-name="P" unicode="P" horiz-adv-x="1244" 
d="M676 1252q118 0 201 -83q84 -84 84 -202t-84 -202q-83 -83 -201 -83h-485q-38 0 -64 -27q-27 -27 -27 -65v-499q0 -38 27 -64q26 -27 64 -27t65 27q27 26 27 64v408h393q193 0 330 137q138 137 138 331q0 193 -138 331q-137 137 -330 137h-485q-38 0 -64 -27
q-27 -27 -27 -64q0 -38 27 -65q26 -27 64 -27h485z" />
    <glyph glyph-name="Q" unicode="Q" 
d="M909 275q0 37 -27 64t-65 27q-37 0 -64 -27t-27 -64v-84q-190 33 -316 181q-127 150 -127 346q0 221 156 378q157 157 378 157q222 0 378 -157q157 -157 157 -378q0 -196 -127 -346q-126 -148 -316 -181v84zM310 1225q-210 -210 -210 -507t210 -507q174 -174 416 -205
v-97q0 -38 27 -64q27 -27 64 -27q38 0 65 27q27 26 27 64v97q242 31 416 205q210 210 210 507t-210 507q-210 211 -508 211q-297 0 -507 -211z" />
    <glyph glyph-name="R" unicode="R" horiz-adv-x="1257" 
d="M256 27q27 26 27 64v408h281l433 -470q27 -29 67 -29q36 0 62 24q28 26 30 64q1 37 -25 65l-334 363q150 41 246 165q98 126 98 286q0 193 -137 331q-137 137 -331 137h-482q-38 0 -64 -27q-27 -27 -27 -64q0 -38 27 -65q26 -27 64 -27h482q118 0 202 -83q83 -84 83 -202
t-83 -202q-84 -83 -202 -83h-482q-38 0 -64 -27q-27 -27 -27 -65v-499q0 -38 27 -64q26 -27 64 -27t65 27z" />
    <glyph glyph-name="S" unicode="S" horiz-adv-x="1258" 
d="M504 183q-91 0 -156 65t-65 156q0 38 -27 65t-65 27t-64 -27q-27 -27 -27 -65q0 -167 119 -285q118 -119 285 -119h249q167 0 286 119q119 118 119 285q0 168 -119 286q-119 119 -286 119h-249q-91 0 -156 65t-65 157q0 91 65 156t156 65h249q92 0 157 -65t65 -156
q0 -38 27 -65q26 -27 64 -27t65 27t27 65q0 167 -119 285q-119 119 -286 119h-249q-167 0 -285 -119q-119 -118 -119 -285q0 -168 119 -286q118 -119 285 -119h249q92 0 157 -65t65 -157q0 -91 -65 -156t-157 -65h-249z" />
    <glyph glyph-name="T" unicode="T" horiz-adv-x="1348" 
d="M583 1252v-1161q0 -38 26 -64q27 -27 65 -27t65 27q26 26 26 64v1161h392q37 0 64 27t27 65q0 37 -27 64t-64 27h-966q-38 0 -64 -27q-27 -27 -27 -64q0 -38 27 -65q26 -27 64 -27h392z" />
    <glyph glyph-name="U" unicode="U" horiz-adv-x="1296" 
d="M1035 161q161 160 161 387v796q0 37 -27 64t-65 27q-37 0 -64 -27t-27 -64v-796q0 -151 -107 -258t-258 -107t-258 107t-107 258v796q0 37 -27 64t-65 27t-64 -27q-27 -27 -27 -64v-796q0 -227 161 -387q160 -161 387 -161q226 0 387 161z" />
    <glyph glyph-name="V" unicode="V" horiz-adv-x="1493" 
d="M663 55q24 -55 83 -55q60 0 84 55l548 1252q15 35 1 70q-13 35 -48 50t-70 2q-35 -14 -50 -49l-465 -1061l-464 1061q-15 35 -50 49q-35 13 -70 -2t-48 -50q-14 -35 1 -70z" />
    <glyph glyph-name="W" unicode="W" horiz-adv-x="2015" 
d="M663 55q24 -55 83 -55q60 0 84 55l172 396l183 -398q25 -53 83 -53h1q59 1 83 55l548 1252q15 35 1 70t-48 50q-35 15 -70 2q-35 -14 -51 -49l-466 -1066l-182 397q-25 53 -83 54q-61 1 -85 -55l-170 -390l-464 1060q-15 35 -50 49q-35 13 -70 -2t-48 -50q-14 -35 1 -70z
" />
    <glyph glyph-name="X" unicode="X" horiz-adv-x="1356" 
d="M195 0q45 0 73 36l410 532l410 -532q28 -36 73 -36q31 0 55 19q30 23 35 61q5 37 -18 67l-440 570l440 571q23 30 18 67q-5 38 -35 61t-67 18q-38 -5 -61 -35l-410 -532l-410 532q-23 30 -61 35q-37 5 -67 -18t-35 -61q-5 -37 18 -67l440 -571l-440 -570q-23 -30 -18 -67
q5 -38 35 -61q24 -19 55 -19z" />
    <glyph glyph-name="Y" unicode="Y" horiz-adv-x="1386" 
d="M602 534v-443q0 -38 27 -64q26 -27 64 -27t65 27q27 26 27 64v443l481 761q20 32 12 69q-8 36 -40 57q-32 20 -69 12q-37 -9 -57 -41l-419 -660l-418 660q-21 32 -58 41q-36 8 -68 -12q-32 -21 -41 -57q-8 -37 12 -69z" />
    <glyph glyph-name="Z" unicode="Z" horiz-adv-x="1326" 
d="M1120 0q37 0 64 27q27 26 27 64t-27 65t-64 27h-734l807 1107q33 45 8 95t-81 50h-914q-37 0 -64 -27t-27 -64q0 -38 27 -65t64 -27h734l-807 -1107q-33 -45 -8 -95t81 -50h914z" />
    <glyph glyph-name="bracketleft" unicode="[" horiz-adv-x="617" 
d="M426 1491q38 0 65 27q26 26 26 64t-26 65q-27 26 -65 26h-235q-38 0 -64 -26q-27 -27 -27 -65v-1722q0 -38 27 -64q26 -27 64 -27h235q38 0 65 27q26 26 26 64t-26 65q-27 27 -65 27h-143v1539h143z" />
    <glyph glyph-name="bracketright" unicode="]" horiz-adv-x="617" 
d="M517 1582q0 38 -26 65q-27 26 -65 26h-235q-38 0 -64 -26q-27 -27 -27 -65t27 -64q26 -27 64 -27h144v-1539h-144q-38 0 -64 -27q-27 -27 -27 -65t27 -64q26 -27 64 -27h235q38 0 65 27q26 26 26 64v1722z" />
    <glyph glyph-name="underscore" unicode="_" horiz-adv-x="826" 
d="M699 156q-26 27 -64 27h-444q-38 0 -64 -27q-27 -27 -27 -65t27 -64q26 -27 64 -27h444q38 0 64 27q27 26 27 64t-27 65z" />
    <glyph glyph-name="grave" unicode="`" horiz-adv-x="330" 
d="M230 1365q0 27 -19 46t-46 19t-46 -19t-19 -46v-105q0 -27 19 -46t46 -19t46 19t19 46v105z" />
    <glyph glyph-name="a" unicode="a" horiz-adv-x="1493" 
d="M521 600l225 516l226 -516h-451zM830 1380q-24 55 -84 55q-59 0 -83 -55l-548 -1252q-15 -34 -1 -70q13 -35 48 -50t70 -1q35 13 50 48l159 363h611l159 -363q24 -55 83 -55q19 0 37 8q35 15 48 50q14 36 -1 70z" />
    <glyph glyph-name="b" unicode="b" horiz-adv-x="1296" 
d="M283 626h508q92 0 157 -65t65 -157q0 -91 -65 -156t-157 -65h-508v443zM283 1252h404q92 0 157 -65t65 -156q0 -92 -65 -157t-157 -65h-404v443zM791 0q168 0 286 119q119 118 119 285q0 113 -58 209q-57 93 -152 146q105 115 105 272q0 167 -118 285q-119 119 -286 119
h-496q-38 0 -64 -27q-27 -27 -27 -64v-1253q0 -38 27 -64q26 -27 64 -27h600z" />
    <glyph glyph-name="c" unicode="c" horiz-adv-x="1452" 
d="M1325 210q27 27 27 65t-27 64q-27 27 -65 27t-64 -27q-157 -156 -379 -156q-221 0 -378 156q-156 157 -156 378q0 222 156 379q157 156 378 156q222 0 379 -156q26 -27 64 -27t65 27q27 26 27 64t-27 65q-210 210 -508 210q-297 0 -507 -210t-210 -508q0 -297 210 -507
t507 -210q298 0 508 210z" />
    <glyph glyph-name="d" unicode="d" horiz-adv-x="1322" 
d="M283 1252h221q222 0 378 -157q157 -156 157 -378q0 -221 -157 -378q-156 -156 -378 -156h-221v1069zM504 0q298 0 508 210t210 507q0 298 -210 508t-508 210h-313q-38 0 -64 -27q-27 -27 -27 -64v-1253q0 -38 27 -64q26 -27 64 -27h313z" />
    <glyph glyph-name="e" unicode="e" horiz-adv-x="1244" 
d="M1052 0q38 0 65 27q27 26 27 64t-27 65t-65 27h-769v443h561q37 0 64 27t27 64q0 38 -27 65t-64 27h-561v443h769q38 0 65 27t27 65q0 37 -27 64t-65 27h-861q-38 0 -64 -27q-27 -27 -27 -64v-1253q0 -38 27 -64q26 -27 64 -27h861z" />
    <glyph glyph-name="f" unicode="f" horiz-adv-x="1244" 
d="M256 27q27 26 27 64v535h561q37 0 64 27t27 64q0 38 -27 65t-64 27h-561v443h769q38 0 65 27t27 65q0 37 -27 64t-65 27h-861q-38 0 -64 -27q-27 -27 -27 -64v-1253q0 -38 27 -64q26 -27 64 -27t65 27z" />
    <glyph glyph-name="g" unicode="g" horiz-adv-x="1451" 
d="M817 0q298 0 508 210q26 27 26 65v442q0 38 -26 65q-27 27 -65 27h-469q-37 0 -64 -27t-27 -65q0 -37 27 -64t64 -27h378v-312q-158 -138 -369 -131t-361 156q-156 157 -156 378q0 222 156 379q157 156 378 156q222 0 379 -156q26 -27 64 -27t65 27q26 26 26 64t-26 65
q-210 210 -508 210q-297 0 -507 -210t-210 -508q0 -297 210 -507t507 -210z" />
    <glyph glyph-name="h" unicode="h" horiz-adv-x="1296" 
d="M256 27q27 26 27 64v535h730v-535q0 -38 27 -64q27 -27 64 -27q38 0 65 27q27 26 27 64v1253q0 37 -27 64t-65 27q-37 0 -64 -27t-27 -64v-535h-730v535q0 37 -27 64t-65 27t-64 -27q-27 -27 -27 -64v-1253q0 -38 27 -64q26 -27 64 -27t65 27z" />
    <glyph glyph-name="i" unicode="i" horiz-adv-x="383" 
d="M256 27q27 26 27 64v1253q0 37 -27 64t-65 27t-64 -27q-27 -27 -27 -64v-1253q0 -38 27 -64q26 -27 64 -27t65 27z" />
    <glyph glyph-name="j" unicode="j" horiz-adv-x="826" 
d="M569 157q157 157 157 378v809q0 37 -27 64q-26 27 -64 27t-65 -27q-26 -27 -26 -64v-809q0 -146 -104 -249q-103 -103 -249 -103q-38 0 -64 -27q-27 -27 -27 -65t27 -64q26 -27 64 -27q221 0 378 157z" />
    <glyph glyph-name="k" unicode="k" horiz-adv-x="1219" 
d="M100 91q0 -38 27 -64q26 -27 64 -27t65 27q27 26 27 64v456l108 98l568 -616q27 -29 67 -29q36 0 62 24q28 26 29 64q2 37 -24 65l-567 614l561 509q28 25 30 63t-23 66q-26 28 -63 30q-38 2 -66 -24l-682 -618v551q0 37 -27 64t-65 27t-64 -27q-27 -27 -27 -64v-1253z
" />
    <glyph glyph-name="l" unicode="l" horiz-adv-x="1270" 
d="M1078 0q38 0 65 27q27 26 27 64t-27 65t-65 27h-795v1161q0 37 -27 64t-65 27t-64 -27q-27 -27 -27 -64v-1253q0 -38 27 -64q26 -27 64 -27h887z" />
    <glyph glyph-name="m" unicode="m" horiz-adv-x="1531" 
d="M256 27q27 26 27 64v966l408 -575q27 -38 74 -38t75 38l408 575v-966q0 -38 27 -64q26 -27 64 -27t65 27q27 26 27 64v1253q0 66 -64 87q-64 20 -102 -35l-500 -703l-499 703q-39 55 -102 35q-64 -21 -64 -87v-1253q0 -38 27 -64q26 -27 64 -27t65 27z" />
    <glyph glyph-name="n" unicode="n" horiz-adv-x="1348" 
d="M256 27q27 26 27 64v985l801 -1040q28 -36 73 -36q15 0 29 5q62 21 62 86v1253q0 37 -27 64t-64 27q-38 0 -65 -27t-27 -64v-985l-801 1040q-40 52 -102 31t-62 -86v-1253q0 -38 27 -64q26 -27 64 -27t65 27z" />
    <glyph glyph-name="o" unicode="o" 
d="M1195 1095q157 -156 157 -378q0 -221 -157 -378q-156 -156 -378 -156q-221 0 -378 156q-156 157 -156 378q0 222 156 378q157 157 378 157q222 0 378 -157zM1325 210q210 210 210 507q0 298 -210 508t-508 210q-297 0 -507 -210t-210 -508q0 -297 210 -507t507 -210
q298 0 508 210z" />
    <glyph glyph-name="p" unicode="p" horiz-adv-x="1244" 
d="M877 765q-83 -83 -201 -83h-393v570h393q118 0 201 -83q84 -84 84 -202t-84 -202zM283 499h393q193 0 330 137q138 137 138 331q0 193 -138 331q-137 137 -330 137h-485q-38 0 -64 -27q-27 -27 -27 -64v-1253q0 -38 27 -64q26 -27 64 -27t65 27q27 26 27 64v408z" />
    <glyph glyph-name="q" unicode="q" 
d="M909 275q0 37 -27 64t-65 27q-37 0 -64 -27t-27 -64v-84q-190 33 -316 181q-127 150 -127 346q0 221 156 378q157 157 378 157q222 0 378 -157q157 -157 157 -378q0 -196 -127 -346q-126 -148 -316 -181v84zM310 1225q-210 -210 -210 -507t210 -507q174 -174 416 -205
v-97q0 -38 27 -64q27 -27 64 -27q38 0 65 27q27 26 27 64v97q242 31 416 205q210 210 210 507t-210 507q-210 211 -508 211q-297 0 -507 -211z" />
    <glyph glyph-name="r" unicode="r" horiz-adv-x="1257" 
d="M875 765q-84 -83 -202 -83h-390v570h390q118 0 202 -83q83 -84 83 -202t-83 -202zM256 27q27 26 27 64v408h281l433 -470q27 -29 67 -29q36 0 62 24q28 26 30 64q1 37 -25 65l-334 363q150 41 246 165q98 126 98 286q0 193 -137 331q-137 137 -331 137h-482
q-38 0 -64 -27q-27 -27 -27 -64v-1253q0 -38 27 -64q26 -27 64 -27t65 27z" />
    <glyph glyph-name="s" unicode="s" horiz-adv-x="1258" 
d="M504 183q-91 0 -156 65t-65 156q0 38 -27 65t-65 27t-64 -27q-27 -27 -27 -65q0 -167 119 -285q118 -119 285 -119h249q167 0 286 119q119 118 119 285q0 168 -119 286q-119 119 -286 119h-249q-91 0 -156 65t-65 157q0 91 65 156t156 65h249q92 0 157 -65t65 -156
q0 -38 27 -65q26 -27 64 -27t65 27t27 65q0 167 -119 285q-119 119 -286 119h-249q-167 0 -285 -119q-119 -118 -119 -285q0 -168 119 -286q118 -119 285 -119h249q92 0 157 -65t65 -157q0 -91 -65 -156t-157 -65h-249z" />
    <glyph glyph-name="t" unicode="t" horiz-adv-x="1348" 
d="M583 1252v-1161q0 -38 26 -64q27 -27 65 -27t65 27q26 26 26 64v1161h392q37 0 64 27t27 65q0 37 -27 64t-64 27h-966q-38 0 -64 -27q-27 -27 -27 -64q0 -38 27 -65q26 -27 64 -27h392z" />
    <glyph glyph-name="u" unicode="u" horiz-adv-x="1296" 
d="M1035 161q161 160 161 387v796q0 37 -27 64t-65 27q-37 0 -64 -27t-27 -64v-796q0 -151 -107 -258t-258 -107t-258 107t-107 258v796q0 37 -27 64t-65 27t-64 -27q-27 -27 -27 -64v-796q0 -227 161 -387q160 -161 387 -161q226 0 387 161z" />
    <glyph glyph-name="v" unicode="v" horiz-adv-x="1493" 
d="M663 55q24 -55 83 -55q60 0 84 55l548 1252q15 35 1 70q-13 35 -48 50t-70 2q-35 -14 -50 -49l-465 -1061l-464 1061q-15 35 -50 49q-35 13 -70 -2t-48 -50q-14 -35 1 -70z" />
    <glyph glyph-name="w" unicode="w" horiz-adv-x="2015" 
d="M663 55q24 -55 83 -55q60 0 84 55l172 396l183 -398q25 -53 83 -53h1q59 1 83 55l548 1252q15 35 1 70t-48 50q-35 15 -70 2q-35 -14 -51 -49l-466 -1066l-182 397q-25 53 -83 54q-61 1 -85 -55l-170 -390l-464 1060q-15 35 -50 49q-35 13 -70 -2t-48 -50q-14 -35 1 -70z
" />
    <glyph glyph-name="x" unicode="x" horiz-adv-x="1356" 
d="M195 0q45 0 73 36l410 532l410 -532q28 -36 73 -36q31 0 55 19q30 23 35 61q5 37 -18 67l-440 570l440 571q23 30 18 67q-5 38 -35 61t-67 18q-38 -5 -61 -35l-410 -532l-410 532q-23 30 -61 35q-37 5 -67 -18t-35 -61q-5 -37 18 -67l440 -571l-440 -570q-23 -30 -18 -67
q5 -38 35 -61q24 -19 55 -19z" />
    <glyph glyph-name="y" unicode="y" horiz-adv-x="1386" 
d="M602 534v-443q0 -38 27 -64q26 -27 64 -27t65 27q27 26 27 64v443l481 761q20 32 12 69q-8 36 -40 57q-32 20 -69 12q-37 -9 -57 -41l-419 -660l-418 660q-21 32 -58 41q-36 8 -68 -12q-32 -21 -41 -57q-8 -37 12 -69z" />
    <glyph glyph-name="z" unicode="z" horiz-adv-x="1326" 
d="M1120 0q37 0 64 27q27 26 27 64t-27 65t-64 27h-734l807 1107q33 45 8 95t-81 50h-914q-37 0 -64 -27t-27 -64q0 -38 27 -65t64 -27h734l-807 -1107q-33 -45 -8 -95t81 -50h914z" />
    <glyph glyph-name="copyright" unicode="&#xa9;" horiz-adv-x="1087" 
d="M341 515q-84 84 -84 203q0 118 84 202t203 84q118 0 202 -84t84 -202q0 -119 -84 -203t-202 -84q-119 0 -203 84zM230 1031q-130 -130 -130 -313q0 -184 130 -314t314 -130q183 0 313 130t130 314q0 183 -130 313t-313 130q-184 0 -314 -130zM597 763q23 -23 56 -23
q32 0 55 23t23 55q0 33 -23 55q-65 65 -156 65t-156 -64q-64 -65 -64 -156q0 -92 64 -156q65 -65 156 -65t156 65q23 22 23 55q0 32 -23 55t-55 23q-33 0 -56 -23q-18 -19 -45 -19q-26 0 -45 19t-19 46q0 26 19 45t45 19q27 0 45 -19z" />
    <glyph glyph-name="acute" unicode="&#xb4;" horiz-adv-x="330" 
d="M230 1365q0 27 -19 46t-46 19t-46 -19t-19 -46v-105q0 -27 19 -46t46 -19t46 19t19 46v105z" />
    <glyph glyph-name="Agrave" unicode="&#xc0;" horiz-adv-x="1493" 
d="M521 600l225 516l226 -516h-451zM830 1380q-24 55 -84 55q-59 0 -83 -55l-548 -1252q-15 -34 -1 -70q13 -35 48 -50t70 -1q35 13 50 48l159 363h611l159 -363q24 -55 83 -55q19 0 37 8q35 15 48 50q14 36 -1 70zM668 1626q0 -21 15 -37l74 -73q16 -16 37 -16q22 0 37 16
q15 15 15 37q0 21 -15 36l-74 74q-15 16 -37 16q-21 0 -37 -16q-15 -15 -15 -37z" />
    <glyph glyph-name="Aacute" unicode="&#xc1;" horiz-adv-x="1493" 
d="M521 600l225 516l226 -516h-451zM830 1380q-24 55 -84 55q-59 0 -83 -55l-548 -1252q-15 -34 -1 -70q13 -35 48 -50t70 -1q35 13 50 48l159 363h611l159 -363q24 -55 83 -55q19 0 37 8q35 15 48 50q14 36 -1 70zM683 1589q-15 -15 -15 -36q0 -22 15 -37q16 -16 37 -16
q22 0 37 16l74 73q15 16 15 37q0 22 -15 37q-15 16 -37 16q-21 0 -37 -16z" />
    <glyph glyph-name="Acircumflex" unicode="&#xc2;" horiz-adv-x="1493" 
d="M521 600l225 516l226 -516h-451zM830 1380q-24 55 -84 55q-59 0 -83 -55l-548 -1252q-15 -34 -1 -70q13 -35 48 -50t70 -1q35 13 50 48l159 363h611l159 -363q24 -55 83 -55q19 0 37 8q35 15 48 50q14 36 -1 70zM777 1665q-16 14 -37 14q-20 -1 -35 -16l-74 -74
q-15 -15 -15 -36q0 -22 15 -37q16 -16 37 -16q22 0 37 16l39 39l46 -41q15 -14 35 -14q23 0 39 18q14 16 13 38q-1 21 -18 36z" />
    <glyph glyph-name="Atilde" unicode="&#xc3;" horiz-adv-x="1493" 
d="M521 600l225 516l226 -516h-451zM1331 8q35 15 48 50q14 36 -1 70l-548 1252q-24 55 -84 55q-59 0 -83 -55l-548 -1252q-15 -34 -1 -70q13 -35 48 -50t70 -1q35 13 50 48l159 363h611l159 -363q24 -55 83 -55q19 0 37 8zM831 1620q-16 -9 -28 -7q-8 1 -28 17q-5 5 -8 7
q-61 49 -124 27q-31 -10 -63 -40q-15 -15 -16 -37q-1 -21 14 -37t36 -16q22 -1 38 14q15 14 25 18q8 3 25 -11q2 -2 6 -5q43 -35 79 -40q10 -2 19 -2q39 0 76 21q24 14 57 46q15 15 16 36q0 22 -15 37q-15 16 -37 16q-21 1 -37 -14q-23 -23 -35 -30z" />
    <glyph glyph-name="Adieresis" unicode="&#xc4;" horiz-adv-x="1493" 
d="M799 1579q0 -22 15 -37q15 -16 37 -16q21 0 37 16q15 15 15 37q0 21 -15 37q-16 15 -37 15q-22 0 -37 -15q-15 -16 -15 -37zM605 1616q-15 -16 -15 -37q0 -22 15 -37q15 -16 37 -16t37 16q15 15 15 37q0 21 -15 37q-15 15 -37 15t-37 -15zM521 600l225 516l226 -516h-451
zM1379 58q14 36 -1 70l-548 1252q-24 55 -84 55q-59 0 -83 -55l-548 -1252q-15 -34 -1 -70q13 -35 48 -50t70 -1q35 13 50 48l159 363h611l159 -363q24 -55 83 -55q19 0 37 8q35 15 48 50z" />
    <glyph glyph-name="Aring" unicode="&#xc5;" horiz-adv-x="1493" 
d="M521 600l225 516l226 -516h-451zM790 1567q18 -18 18 -44q0 -25 -18 -44q-18 -18 -44 -18q-25 0 -43 18q-18 19 -18 44q0 26 18 44t43 18q26 0 44 -18zM841 1356q98 55 98 167q0 80 -57 136q-56 57 -136 57q-79 0 -136 -57q-56 -56 -56 -136q0 -112 98 -167l-537 -1228
q-15 -34 -1 -70q13 -35 48 -50t70 -1q35 13 50 48l159 363h611l159 -363q24 -55 83 -55q19 0 37 8q35 15 48 50q14 36 -1 70z" />
    <glyph glyph-name="AE" unicode="&#xc6;" horiz-adv-x="1773" 
d="M521 600l219 501l188 -501h-407zM1581 1252q38 0 65 27t27 65q0 37 -27 64t-65 27h-835h-3h-1q-3 0 -6 -1h-2q-3 0 -5 -1v0h-1q-2 0 -6 -1q1 0 -1 -1q-3 -1 -5 -1q-3 -2 -6 -3h-1q-3 -2 -6 -3q-2 -1 -5 -3h-1v0q2 1 0 0v-1q-3 -1 -5 -3v0v0q-2 -2 -5 -4l-1 -1
q-2 -2 -4 -3v-1l-4 -4l-1 -1q-2 -3 -4 -5v0q-2 -3 -3 -5l-1 -1q-4 -6 -7 -13l-365 -834v0v-1l-182 -416q-15 -35 -1 -70q13 -35 48 -50q18 -8 37 -8q59 0 83 55l159 362h555l135 -358q22 -59 85 -59h365q38 0 65 27t27 64q0 38 -27 65t-65 27h-302l-166 443h468q38 0 65 27
t27 64q0 38 -27 65t-65 27h-536l-167 443h703z" />
    <glyph glyph-name="Ccedilla" unicode="&#xc7;" horiz-adv-x="1452" 
d="M1260 1059q38 0 65 27t27 65q0 37 -27 64q-210 210 -508 210q-297 0 -507 -210t-210 -507t210 -507q153 -154 364 -196v-54q0 -38 27 -64q26 -27 64 -27t65 27q27 26 27 64v41q273 14 468 209q27 26 27 64t-27 65q-27 26 -65 26t-64 -26q-157 -157 -379 -157
q-221 0 -378 157q-156 156 -156 378t156 378q157 156 378 156q222 0 379 -156q26 -27 64 -27z" />
    <glyph glyph-name="Egrave" unicode="&#xc8;" horiz-adv-x="1244" 
d="M1052 1252q38 0 65 27t27 65q0 37 -27 64t-65 27h-861q-38 0 -64 -27q-27 -27 -27 -64v-1253q0 -38 27 -64q26 -27 64 -27h861q38 0 65 27q27 26 27 64t-27 65t-65 27h-769v443h561q37 0 64 27t27 64q0 38 -27 65t-64 27h-561v443h769zM533 1626q0 -22 15 -37l74 -74
q15 -15 37 -15q21 0 37 15q15 16 15 37q0 22 -15 37l-74 74q-16 15 -37 15q-22 0 -37 -15t-15 -37z" />
    <glyph glyph-name="Eacute" unicode="&#xc9;" horiz-adv-x="1244" 
d="M1052 1252q38 0 65 27t27 65q0 37 -27 64t-65 27h-861q-38 0 -64 -27q-27 -27 -27 -64v-1253q0 -38 27 -64q26 -27 64 -27h861q38 0 65 27q27 26 27 64t-27 65t-65 27h-769v443h561q37 0 64 27t27 64q0 38 -27 65t-64 27h-561v443h769zM585 1500q21 0 37 15l74 74
q15 15 15 37t-15 37q-16 15 -37 15q-22 0 -37 -15l-74 -74q-15 -15 -15 -37q0 -21 15 -37q15 -15 37 -15z" />
    <glyph glyph-name="Ecircumflex" unicode="&#xca;" horiz-adv-x="1244" 
d="M1052 1252q38 0 65 27t27 65q0 37 -27 64t-65 27h-861q-38 0 -64 -27q-27 -27 -27 -64v-1253q0 -38 27 -64q26 -27 64 -27h861q38 0 65 27q27 26 27 64t-27 65t-65 27h-769v443h561q37 0 64 27t27 64q0 38 -27 65t-64 27h-561v443h769zM652 1665q-15 14 -36 13
q-21 0 -36 -15l-73 -74q-16 -15 -16 -37q0 -21 16 -37q15 -15 37 -15q21 0 36 15l39 39l46 -41q15 -13 35 -13q23 0 39 18q14 16 13 37q-1 22 -17 36z" />
    <glyph glyph-name="Edieresis" unicode="&#xcb;" horiz-adv-x="1244" 
d="M1052 1252q38 0 65 27t27 65q0 37 -27 64t-65 27h-861q-38 0 -64 -27q-27 -27 -27 -64v-1253q0 -38 27 -64q26 -27 64 -27h861q38 0 65 27q27 26 27 64t-27 65t-65 27h-769v443h561q37 0 64 27t27 64q0 38 -27 65t-64 27h-561v443h769zM674 1578q0 -21 15 -37
q15 -15 37 -15t37 15q15 16 15 37q0 22 -15 37q-15 16 -37 16q-21 0 -37 -16q-15 -15 -15 -37zM465 1578q0 -21 16 -37q15 -15 36 -15q22 0 37 15q16 16 16 37q0 22 -16 37q-15 16 -37 16q-21 0 -36 -16q-16 -15 -16 -37z" />
    <glyph glyph-name="Igrave" unicode="&#xcc;" horiz-adv-x="383" 
d="M127 1408q-27 -27 -27 -64v-1253q0 -38 27 -64q26 -27 64 -27t65 27q27 26 27 64v1253q0 37 -27 64t-65 27t-64 -27zM191 1515q16 -15 37 -15q22 0 37 15q15 16 15 37q0 22 -15 37l-74 74q-15 15 -37 15q-21 0 -36 -15q-16 -15 -16 -37t16 -37z" />
    <glyph glyph-name="Iacute" unicode="&#xcd;" horiz-adv-x="383" 
d="M127 1408q-27 -27 -27 -64v-1253q0 -38 27 -64q26 -27 64 -27t65 27q27 26 27 64v1253q0 37 -27 64t-65 27t-64 -27zM154 1500q22 0 37 15l74 74q15 15 15 37t-15 37t-37 15q-21 0 -37 -15l-73 -74q-16 -15 -16 -37q0 -21 16 -37q15 -15 36 -15z" />
    <glyph glyph-name="Icircumflex" unicode="&#xce;" horiz-adv-x="462" 
d="M166 1408q-27 -27 -27 -64v-1253q0 -38 27 -64q27 -27 64 -27q38 0 65 27q27 26 27 64v1253q0 37 -27 64t-65 27q-37 0 -64 -27zM261 1665q-16 14 -37 13q-20 0 -35 -15l-74 -74q-15 -15 -15 -37q0 -21 15 -37q16 -15 37 -15q22 0 37 15l39 39l46 -41q15 -13 35 -13
q23 0 39 18q14 16 13 37q-1 22 -18 36z" />
    <glyph glyph-name="Idieresis" unicode="&#xcf;" horiz-adv-x="513" 
d="M192 1408q-27 -27 -27 -64v-1253q0 -38 27 -64q27 -27 65 -27q37 0 64 27q27 26 27 64v1253q0 37 -27 64t-64 27q-38 0 -65 -27zM324 1615q-15 -15 -15 -37q0 -21 15 -37q15 -15 37 -15t37 15q15 16 15 37q0 22 -15 37q-15 16 -37 16t-37 -16zM189 1615q-15 16 -37 16
q-21 0 -37 -16q-15 -15 -15 -37q0 -21 15 -37q16 -15 37 -15q22 0 37 15q15 16 15 37q0 22 -15 37z" />
    <glyph glyph-name="Eth" unicode="&#xd0;" horiz-adv-x="1452" 
d="M413 183v443h170q37 0 64 27t27 64q0 38 -27 65t-64 27h-170v443h222q221 0 378 -157q157 -156 157 -378q0 -221 -157 -378q-157 -156 -378 -156h-222zM322 1435q-38 0 -65 -27t-27 -64v-535h-39q-38 0 -64 -27q-27 -27 -27 -65q0 -37 27 -64q26 -27 64 -27h39v-535
q0 -38 27 -64q27 -27 65 -27h313q297 0 507 210t210 507q0 298 -210 508t-507 210h-313z" />
    <glyph glyph-name="Ntilde" unicode="&#xd1;" horiz-adv-x="1348" 
d="M591 1565q9 3 25 -10q2 -1 7 -5q42 -35 79 -41q9 -1 19 -1q39 0 76 21q24 13 57 45q15 15 15 37q1 22 -14 37q-15 16 -37 16t-37 -15q-24 -22 -36 -29q-15 -9 -28 -7q-8 1 -27 17q-6 4 -8 7q-62 49 -125 27q-30 -10 -62 -40q-16 -15 -16 -37q-1 -21 14 -37q14 -16 36 -17
q22 0 37 15q16 14 25 17zM1092 1408q-27 -27 -27 -64v-985l-801 1040q-40 52 -102 31t-62 -86v-1253q0 -38 27 -64q26 -27 64 -27t65 27q27 26 27 64v985l801 -1040q28 -36 73 -36q15 0 29 5q62 21 62 86v1253q0 37 -27 64t-64 27q-38 0 -65 -27z" />
    <glyph glyph-name="Ograve" unicode="&#xd2;" 
d="M439 339q-156 157 -156 378q0 222 156 378q157 157 378 157q222 0 378 -157q157 -156 157 -378q0 -221 -157 -378q-156 -156 -378 -156q-221 0 -378 156zM310 1225q-210 -210 -210 -508q0 -297 210 -507t507 -210q298 0 508 210t210 507q0 298 -210 508t-508 210
q-297 0 -507 -210zM817 1663q-15 15 -36 15q-22 0 -37 -15q-16 -15 -16 -37t16 -37l73 -74q16 -15 37 -15q22 0 37 15q16 16 16 37q0 22 -16 37z" />
    <glyph glyph-name="Oacute" unicode="&#xd3;" 
d="M439 339q-156 157 -156 378q0 222 156 378q157 157 378 157q222 0 378 -157q157 -156 157 -378q0 -221 -157 -378q-156 -156 -378 -156q-221 0 -378 156zM310 1225q-210 -210 -210 -508q0 -297 210 -507t507 -210q298 0 508 210t210 507q0 298 -210 508t-508 210
q-297 0 -507 -210zM817 1515l74 74q16 15 16 37t-16 37q-15 15 -37 15q-21 0 -37 -15l-73 -74q-16 -15 -16 -37q0 -21 16 -37q15 -15 37 -15q21 0 36 15z" />
    <glyph glyph-name="Ocircumflex" unicode="&#xd4;" 
d="M439 339q-156 157 -156 378q0 222 156 378q157 157 378 157q222 0 378 -157q157 -156 157 -378q0 -221 -157 -378q-156 -156 -378 -156q-221 0 -378 156zM310 1225q-210 -210 -210 -508q0 -297 210 -507t507 -210q298 0 508 210t210 507q0 298 -210 508t-508 210
q-297 0 -507 -210zM848 1665q-16 14 -37 13q-20 0 -35 -15l-74 -74q-15 -15 -15 -37q0 -21 15 -37q16 -15 37 -15q22 0 37 15l39 39l46 -41q15 -13 35 -13q23 0 39 18q14 16 13 37q-1 22 -18 36z" />
    <glyph glyph-name="Otilde" unicode="&#xd5;" 
d="M439 339q-156 157 -156 378q0 222 156 378q157 157 378 157q222 0 378 -157q157 -156 157 -378q0 -221 -157 -378q-156 -156 -378 -156q-221 0 -378 156zM310 1225q-210 -210 -210 -508q0 -297 210 -507t507 -210q298 0 508 210t210 507q0 298 -210 508t-508 210
q-297 0 -507 -210zM735 1565q8 3 25 -10q2 -1 6 -5q43 -35 80 -41q9 -1 18 -1q40 0 76 21q24 13 57 45q16 15 16 37t-15 37q-15 16 -37 16q-21 0 -37 -15q-23 -22 -35 -29q-16 -9 -28 -7q-8 1 -28 17q-5 5 -8 6q-61 50 -124 28q-31 -10 -63 -40q-15 -15 -16 -37
q-1 -21 14 -37t37 -17q21 0 37 15q16 14 25 17z" />
    <glyph glyph-name="Odieresis" unicode="&#xd6;" 
d="M439 339q-156 157 -156 378q0 222 156 378q157 157 378 157q222 0 378 -157q157 -156 157 -378q0 -221 -157 -378q-156 -156 -378 -156q-221 0 -378 156zM310 1225q-210 -210 -210 -508q0 -297 210 -507t507 -210q298 0 508 210t210 507q0 298 -210 508t-508 210
q-297 0 -507 -210zM974 1578q0 22 -15 37q-16 16 -37 16q-22 0 -37 -16q-15 -15 -15 -37q0 -21 15 -37q15 -15 37 -15q21 0 37 15q15 16 15 37zM750 1541q15 16 15 37q0 22 -15 37q-15 16 -37 16t-37 -16q-15 -15 -15 -37q0 -21 15 -37q15 -15 37 -15t37 15z" />
    <glyph glyph-name="multiply" unicode="&#xd7;" horiz-adv-x="696" 
d="M440 489q27 -27 65 -27t64 27q27 26 27 64t-27 65l-92 92l92 92q27 27 27 65t-27 64q-26 27 -64 27t-65 -27l-92 -92l-92 92q-27 27 -65 27t-64 -27q-27 -26 -27 -64t27 -65l92 -92l-92 -92q-27 -27 -27 -65t27 -64q26 -27 64 -27t65 27l92 92z" />
    <glyph glyph-name="Oslash" unicode="&#xd8;" 
d="M1195 339q-156 -156 -378 -156q-169 0 -307 97l744 745q98 -138 98 -308q0 -221 -157 -378zM439 1095q157 157 378 157q170 0 308 -98l-745 -744q-97 138 -97 307q0 222 156 378zM1444 1435q-38 0 -65 -27l-123 -123q-193 150 -439 150q-297 0 -507 -210t-210 -508
q0 -245 150 -438l-123 -123q-27 -27 -27 -65t27 -64q26 -27 64 -27t65 27l123 123q193 -150 438 -150q298 0 508 210t210 507q0 246 -150 439l123 123q27 27 27 65q0 37 -27 64t-64 27z" />
    <glyph glyph-name="Ugrave" unicode="&#xd9;" horiz-adv-x="1296" 
d="M722 1520q15 15 15 37q0 21 -15 37l-74 73q-15 16 -37 16t-37 -16q-15 -15 -15 -36q0 -22 15 -37l74 -74q15 -15 37 -15q21 0 37 15zM1040 1408q-27 -27 -27 -64v-796q0 -151 -107 -258t-258 -107t-258 107t-107 258v796q0 37 -27 64t-65 27t-64 -27q-27 -27 -27 -64
v-796q0 -227 161 -387q160 -161 387 -161q226 0 387 161q161 160 161 387v796q0 37 -27 64t-65 27q-37 0 -64 -27z" />
    <glyph glyph-name="Uacute" unicode="&#xda;" horiz-adv-x="1296" 
d="M722 1594q15 15 15 37q0 21 -15 36q-16 16 -37 16q-22 0 -37 -16l-74 -73q-15 -16 -15 -37q0 -22 15 -37t37 -15t37 15zM1040 1408q-27 -27 -27 -64v-796q0 -151 -107 -258t-258 -107t-258 107t-107 258v796q0 37 -27 64t-65 27t-64 -27q-27 -27 -27 -64v-796
q0 -227 161 -387q160 -161 387 -161q226 0 387 161q161 160 161 387v796q0 37 -27 64t-65 27q-37 0 -64 -27z" />
    <glyph glyph-name="Ucircumflex" unicode="&#xdb;" horiz-adv-x="1296" 
d="M645 1559l46 -41q15 -13 35 -13q24 0 39 17q14 16 13 38q-1 21 -17 36l-83 73q-15 14 -36 14q-21 -1 -36 -16l-73 -73q-16 -16 -16 -37q0 -22 16 -37q15 -15 37 -15q21 0 36 15zM1040 1408q-27 -27 -27 -64v-796q0 -151 -107 -258t-258 -107t-258 107t-107 258v796
q0 37 -27 64t-65 27t-64 -27q-27 -27 -27 -64v-796q0 -227 161 -387q160 -161 387 -161q226 0 387 161q161 160 161 387v796q0 37 -27 64t-65 27q-37 0 -64 -27z" />
    <glyph glyph-name="Udieresis" unicode="&#xdc;" horiz-adv-x="1296" 
d="M804 1583q0 21 -15 37q-15 15 -37 15q-21 0 -37 -15q-15 -16 -15 -37q0 -22 15 -37q16 -15 37 -15q22 0 37 15t15 37zM596 1583q0 21 -16 37q-15 15 -36 15q-22 0 -37 -15q-16 -16 -16 -37q0 -22 16 -37q15 -15 37 -15q21 0 36 15q16 15 16 37zM1040 1408
q-27 -27 -27 -64v-796q0 -151 -107 -258t-258 -107t-258 107t-107 258v796q0 37 -27 64t-65 27t-64 -27q-27 -27 -27 -64v-796q0 -227 161 -387q160 -161 387 -161q226 0 387 161q161 160 161 387v796q0 37 -27 64t-65 27q-37 0 -64 -27z" />
    <glyph glyph-name="Yacute" unicode="&#xdd;" horiz-adv-x="1386" 
d="M767 1594q15 15 15 37q0 21 -15 36q-15 16 -37 16t-37 -16l-74 -73q-15 -16 -15 -37q0 -22 15 -37q16 -15 37 -15q22 0 37 15zM1169 1433q-37 -9 -57 -41l-419 -660l-418 660q-21 32 -57 41q-37 8 -69 -12q-32 -21 -41 -57q-8 -37 12 -69l482 -761v-443q0 -38 27 -64
q26 -27 64 -27t65 27q26 26 26 64v443l482 761q20 32 12 69q-8 36 -40 57q-32 20 -69 12z" />
    <glyph glyph-name="Thorn" unicode="&#xde;" horiz-adv-x="1035" 
d="M283 466v503h218q104 0 178 -74q73 -74 73 -178q0 -103 -73 -177q-74 -74 -178 -74h-218zM283 1151v193q0 37 -27 64t-65 27t-64 -27q-27 -27 -27 -64v-1253q0 -38 27 -64q26 -27 64 -27t65 27q27 26 27 64v193h218q179 0 307 127q127 127 127 306q0 180 -127 307
q-128 127 -307 127h-218z" />
    <glyph glyph-name="germandbls" unicode="&#xdf;" horiz-adv-x="1139" 
d="M921 1316q-119 119 -286 119h-131q-167 0 -285 -119q-119 -118 -119 -285v-940q0 -38 27 -64q26 -27 64 -27t65 27q27 26 27 64v940q0 91 65 156t156 65h131q92 0 157 -65t65 -156q0 -92 -65 -157t-157 -65h-131q-37 0 -64 -27t-27 -65q0 -37 27 -64t64 -27h131
q92 0 157 -65t65 -157q0 -91 -65 -156t-157 -65h-131q-37 0 -64 -27t-27 -65t27 -64q27 -27 64 -27h131q167 0 286 119q118 118 118 285q0 192 -149 313q149 122 149 314q0 167 -118 285z" />
    <glyph glyph-name="agrave" unicode="&#xe0;" horiz-adv-x="1493" 
d="M521 600l225 516l226 -516h-451zM830 1380q-24 55 -84 55q-59 0 -83 -55l-548 -1252q-15 -34 -1 -70q13 -35 48 -50t70 -1q35 13 50 48l159 363h611l159 -363q24 -55 83 -55q19 0 37 8q35 15 48 50q14 36 -1 70zM668 1626q0 -21 15 -37l74 -73q16 -16 37 -16q22 0 37 16
q15 15 15 37q0 21 -15 36l-74 74q-15 16 -37 16q-21 0 -37 -16q-15 -15 -15 -37z" />
    <glyph glyph-name="aacute" unicode="&#xe1;" horiz-adv-x="1493" 
d="M521 600l225 516l226 -516h-451zM830 1380q-24 55 -84 55q-59 0 -83 -55l-548 -1252q-15 -34 -1 -70q13 -35 48 -50t70 -1q35 13 50 48l159 363h611l159 -363q24 -55 83 -55q19 0 37 8q35 15 48 50q14 36 -1 70zM683 1589q-15 -15 -15 -36q0 -22 15 -37q16 -16 37 -16
q22 0 37 16l74 73q15 16 15 37q0 22 -15 37q-15 16 -37 16q-21 0 -37 -16z" />
    <glyph glyph-name="acircumflex" unicode="&#xe2;" horiz-adv-x="1493" 
d="M521 600l225 516l226 -516h-451zM830 1380q-24 55 -84 55q-59 0 -83 -55l-548 -1252q-15 -34 -1 -70q13 -35 48 -50t70 -1q35 13 50 48l159 363h611l159 -363q24 -55 83 -55q19 0 37 8q35 15 48 50q14 36 -1 70zM777 1665q-16 14 -37 14q-20 -1 -35 -16l-74 -74
q-15 -15 -15 -36q0 -22 15 -37q16 -16 37 -16q22 0 37 16l39 39l46 -41q15 -14 35 -14q23 0 39 18q14 16 13 38q-1 21 -18 36z" />
    <glyph glyph-name="atilde" unicode="&#xe3;" horiz-adv-x="1493" 
d="M521 600l225 516l226 -516h-451zM1331 8q35 15 48 50q14 36 -1 70l-548 1252q-24 55 -84 55q-59 0 -83 -55l-548 -1252q-15 -34 -1 -70q13 -35 48 -50t70 -1q35 13 50 48l159 363h611l159 -363q24 -55 83 -55q19 0 37 8zM831 1620q-16 -9 -28 -7q-8 1 -28 17q-5 5 -8 7
q-61 49 -124 27q-31 -10 -63 -40q-15 -15 -16 -37q-1 -21 14 -37t36 -16q22 -1 38 14q15 14 25 18q8 3 25 -11q2 -2 6 -5q43 -35 79 -40q10 -2 19 -2q39 0 76 21q24 14 57 46q15 15 16 36q0 22 -15 37q-15 16 -37 16q-21 1 -37 -14q-23 -23 -35 -30z" />
    <glyph glyph-name="adieresis" unicode="&#xe4;" horiz-adv-x="1493" 
d="M799 1579q0 -22 15 -37q15 -16 37 -16q21 0 37 16q15 15 15 37q0 21 -15 37q-16 15 -37 15q-22 0 -37 -15q-15 -16 -15 -37zM605 1616q-15 -16 -15 -37q0 -22 15 -37q15 -16 37 -16t37 16q15 15 15 37q0 21 -15 37q-15 15 -37 15t-37 -15zM521 600l225 516l226 -516h-451
zM1379 58q14 36 -1 70l-548 1252q-24 55 -84 55q-59 0 -83 -55l-548 -1252q-15 -34 -1 -70q13 -35 48 -50t70 -1q35 13 50 48l159 363h611l159 -363q24 -55 83 -55q19 0 37 8q35 15 48 50z" />
    <glyph glyph-name="aring" unicode="&#xe5;" horiz-adv-x="1493" 
d="M521 600l225 516l226 -516h-451zM790 1567q18 -18 18 -44q0 -25 -18 -44q-18 -18 -44 -18q-25 0 -43 18q-18 19 -18 44q0 26 18 44t43 18q26 0 44 -18zM841 1356q98 55 98 167q0 80 -57 136q-56 57 -136 57q-79 0 -136 -57q-56 -56 -56 -136q0 -112 98 -167l-537 -1228
q-15 -34 -1 -70q13 -35 48 -50t70 -1q35 13 50 48l159 363h611l159 -363q24 -55 83 -55q19 0 37 8q35 15 48 50q14 36 -1 70z" />
    <glyph glyph-name="ae" unicode="&#xe6;" horiz-adv-x="1773" 
d="M521 600l219 501l188 -501h-407zM1581 1252q38 0 65 27t27 65q0 37 -27 64t-65 27h-835h-3h-1q-3 0 -6 -1h-2q-3 0 -5 -1v0h-1q-2 0 -6 -1q1 0 -1 -1q-3 -1 -5 -1q-3 -2 -6 -3h-1q-3 -2 -6 -3q-2 -1 -5 -3h-1v0q2 1 0 0v-1q-3 -1 -5 -3v0v0q-2 -2 -5 -4l-1 -1
q-2 -2 -4 -3v-1l-4 -4l-1 -1q-2 -3 -4 -5v0q-2 -3 -3 -5l-1 -1q-4 -6 -7 -13l-365 -834v0v-1l-182 -416q-15 -35 -1 -70q13 -35 48 -50q18 -8 37 -8q59 0 83 55l159 362h555l135 -358q22 -59 85 -59h365q38 0 65 27t27 64q0 38 -27 65t-65 27h-302l-166 443h468q38 0 65 27
t27 64q0 38 -27 65t-65 27h-536l-167 443h703z" />
    <glyph glyph-name="ccedilla" unicode="&#xe7;" horiz-adv-x="1452" 
d="M1260 1059q38 0 65 27t27 65q0 37 -27 64q-210 210 -508 210q-297 0 -507 -210t-210 -507t210 -507q153 -154 364 -196v-54q0 -38 27 -64q26 -27 64 -27t65 27q27 26 27 64v41q273 14 468 209q27 26 27 64t-27 65q-27 26 -65 26t-64 -26q-157 -157 -379 -157
q-221 0 -378 157q-156 156 -156 378t156 378q157 156 378 156q222 0 379 -156q26 -27 64 -27z" />
    <glyph glyph-name="egrave" unicode="&#xe8;" horiz-adv-x="1244" 
d="M1052 1252q38 0 65 27t27 65q0 37 -27 64t-65 27h-861q-38 0 -64 -27q-27 -27 -27 -64v-1253q0 -38 27 -64q26 -27 64 -27h861q38 0 65 27q27 26 27 64t-27 65t-65 27h-769v443h561q37 0 64 27t27 64q0 38 -27 65t-64 27h-561v443h769zM533 1626q0 -22 15 -37l74 -74
q15 -15 37 -15q21 0 37 15q15 16 15 37q0 22 -15 37l-74 74q-16 15 -37 15q-22 0 -37 -15t-15 -37z" />
    <glyph glyph-name="eacute" unicode="&#xe9;" horiz-adv-x="1244" 
d="M1052 1252q38 0 65 27t27 65q0 37 -27 64t-65 27h-861q-38 0 -64 -27q-27 -27 -27 -64v-1253q0 -38 27 -64q26 -27 64 -27h861q38 0 65 27q27 26 27 64t-27 65t-65 27h-769v443h561q37 0 64 27t27 64q0 38 -27 65t-64 27h-561v443h769zM585 1500q21 0 37 15l74 74
q15 15 15 37t-15 37q-16 15 -37 15q-22 0 -37 -15l-74 -74q-15 -15 -15 -37q0 -21 15 -37q15 -15 37 -15z" />
    <glyph glyph-name="ecircumflex" unicode="&#xea;" horiz-adv-x="1244" 
d="M1052 1252q38 0 65 27t27 65q0 37 -27 64t-65 27h-861q-38 0 -64 -27q-27 -27 -27 -64v-1253q0 -38 27 -64q26 -27 64 -27h861q38 0 65 27q27 26 27 64t-27 65t-65 27h-769v443h561q37 0 64 27t27 64q0 38 -27 65t-64 27h-561v443h769zM652 1665q-15 14 -36 13
q-21 0 -36 -15l-73 -74q-16 -15 -16 -37q0 -21 16 -37q15 -15 37 -15q21 0 36 15l39 39l46 -41q15 -13 35 -13q23 0 39 18q14 16 13 37q-1 22 -17 36z" />
    <glyph glyph-name="edieresis" unicode="&#xeb;" horiz-adv-x="1244" 
d="M1052 1252q38 0 65 27t27 65q0 37 -27 64t-65 27h-861q-38 0 -64 -27q-27 -27 -27 -64v-1253q0 -38 27 -64q26 -27 64 -27h861q38 0 65 27q27 26 27 64t-27 65t-65 27h-769v443h561q37 0 64 27t27 64q0 38 -27 65t-64 27h-561v443h769zM674 1578q0 -21 15 -37
q15 -15 37 -15t37 15q15 16 15 37q0 22 -15 37q-15 16 -37 16q-21 0 -37 -16q-15 -15 -15 -37zM465 1578q0 -21 16 -37q15 -15 36 -15q22 0 37 15q16 16 16 37q0 22 -16 37q-15 16 -37 16q-21 0 -36 -16q-16 -15 -16 -37z" />
    <glyph glyph-name="igrave" unicode="&#xec;" horiz-adv-x="383" 
d="M127 1408q-27 -27 -27 -64v-1253q0 -38 27 -64q26 -27 64 -27t65 27q27 26 27 64v1253q0 37 -27 64t-65 27t-64 -27zM191 1515q16 -15 37 -15q22 0 37 15q15 16 15 37q0 22 -15 37l-74 74q-15 15 -37 15q-21 0 -36 -15q-16 -15 -16 -37t16 -37z" />
    <glyph glyph-name="iacute" unicode="&#xed;" horiz-adv-x="383" 
d="M127 1408q-27 -27 -27 -64v-1253q0 -38 27 -64q26 -27 64 -27t65 27q27 26 27 64v1253q0 37 -27 64t-65 27t-64 -27zM154 1500q22 0 37 15l74 74q15 15 15 37t-15 37t-37 15q-21 0 -37 -15l-73 -74q-16 -15 -16 -37q0 -21 16 -37q15 -15 36 -15z" />
    <glyph glyph-name="icircumflex" unicode="&#xee;" horiz-adv-x="462" 
d="M166 1408q-27 -27 -27 -64v-1253q0 -38 27 -64q27 -27 64 -27q38 0 65 27q27 26 27 64v1253q0 37 -27 64t-65 27q-37 0 -64 -27zM261 1665q-16 14 -37 13q-20 0 -35 -15l-74 -74q-15 -15 -15 -37q0 -21 15 -37q16 -15 37 -15q22 0 37 15l39 39l46 -41q15 -13 35 -13
q23 0 39 18q14 16 13 37q-1 22 -18 36z" />
    <glyph glyph-name="idieresis" unicode="&#xef;" horiz-adv-x="513" 
d="M192 1408q-27 -27 -27 -64v-1253q0 -38 27 -64q27 -27 65 -27q37 0 64 27q27 26 27 64v1253q0 37 -27 64t-64 27q-38 0 -65 -27zM324 1615q-15 -15 -15 -37q0 -21 15 -37q15 -15 37 -15t37 15q15 16 15 37q0 22 -15 37q-15 16 -37 16t-37 -16zM189 1615q-15 16 -37 16
q-21 0 -37 -16q-15 -15 -15 -37q0 -21 15 -37q16 -15 37 -15q22 0 37 15q15 16 15 37q0 22 -15 37z" />
    <glyph glyph-name="eth" unicode="&#xf0;" horiz-adv-x="1452" 
d="M413 183v443h170q37 0 64 27t27 64q0 38 -27 65t-64 27h-170v443h222q221 0 378 -157q157 -156 157 -378q0 -221 -157 -378q-157 -156 -378 -156h-222zM322 1435q-38 0 -65 -27t-27 -64v-535h-39q-38 0 -64 -27q-27 -27 -27 -65q0 -37 27 -64q26 -27 64 -27h39v-535
q0 -38 27 -64q27 -27 65 -27h313q297 0 507 210t210 507q0 298 -210 508t-507 210h-313z" />
    <glyph glyph-name="ntilde" unicode="&#xf1;" horiz-adv-x="1348" 
d="M591 1565q9 3 25 -10q2 -1 7 -5q42 -35 79 -41q9 -1 19 -1q39 0 76 21q24 13 57 45q15 15 15 37q1 22 -14 37q-15 16 -37 16t-37 -15q-24 -22 -36 -29q-15 -9 -28 -7q-8 1 -27 17q-6 4 -8 7q-62 49 -125 27q-30 -10 -62 -40q-16 -15 -16 -37q-1 -21 14 -37q14 -16 36 -17
q22 0 37 15q16 14 25 17zM1092 1408q-27 -27 -27 -64v-985l-801 1040q-40 52 -102 31t-62 -86v-1253q0 -38 27 -64q26 -27 64 -27t65 27q27 26 27 64v985l801 -1040q28 -36 73 -36q15 0 29 5q62 21 62 86v1253q0 37 -27 64t-64 27q-38 0 -65 -27z" />
    <glyph glyph-name="ograve" unicode="&#xf2;" 
d="M439 339q-156 157 -156 378q0 222 156 378q157 157 378 157q222 0 378 -157q157 -156 157 -378q0 -221 -157 -378q-156 -156 -378 -156q-221 0 -378 156zM310 1225q-210 -210 -210 -508q0 -297 210 -507t507 -210q298 0 508 210t210 507q0 298 -210 508t-508 210
q-297 0 -507 -210zM817 1663q-15 15 -36 15q-22 0 -37 -15q-16 -15 -16 -37t16 -37l73 -74q16 -15 37 -15q22 0 37 15q16 16 16 37q0 22 -16 37z" />
    <glyph glyph-name="oacute" unicode="&#xf3;" 
d="M439 339q-156 157 -156 378q0 222 156 378q157 157 378 157q222 0 378 -157q157 -156 157 -378q0 -221 -157 -378q-156 -156 -378 -156q-221 0 -378 156zM310 1225q-210 -210 -210 -508q0 -297 210 -507t507 -210q298 0 508 210t210 507q0 298 -210 508t-508 210
q-297 0 -507 -210zM817 1515l74 74q16 15 16 37t-16 37q-15 15 -37 15q-21 0 -37 -15l-73 -74q-16 -15 -16 -37q0 -21 16 -37q15 -15 37 -15q21 0 36 15z" />
    <glyph glyph-name="ocircumflex" unicode="&#xf4;" 
d="M439 339q-156 157 -156 378q0 222 156 378q157 157 378 157q222 0 378 -157q157 -156 157 -378q0 -221 -157 -378q-156 -156 -378 -156q-221 0 -378 156zM310 1225q-210 -210 -210 -508q0 -297 210 -507t507 -210q298 0 508 210t210 507q0 298 -210 508t-508 210
q-297 0 -507 -210zM848 1665q-16 14 -37 13q-20 0 -35 -15l-74 -74q-15 -15 -15 -37q0 -21 15 -37q16 -15 37 -15q22 0 37 15l39 39l46 -41q15 -13 35 -13q23 0 39 18q14 16 13 37q-1 22 -18 36z" />
    <glyph glyph-name="otilde" unicode="&#xf5;" 
d="M439 339q-156 157 -156 378q0 222 156 378q157 157 378 157q222 0 378 -157q157 -156 157 -378q0 -221 -157 -378q-156 -156 -378 -156q-221 0 -378 156zM310 1225q-210 -210 -210 -508q0 -297 210 -507t507 -210q298 0 508 210t210 507q0 298 -210 508t-508 210
q-297 0 -507 -210zM735 1565q8 3 25 -10q2 -1 6 -5q43 -35 80 -41q9 -1 18 -1q40 0 76 21q24 13 57 45q16 15 16 37t-15 37q-15 16 -37 16q-21 0 -37 -15q-23 -22 -35 -29q-16 -9 -28 -7q-8 1 -28 17q-5 5 -8 6q-61 50 -124 28q-31 -10 -63 -40q-15 -15 -16 -37
q-1 -21 14 -37t37 -17q21 0 37 15q16 14 25 17z" />
    <glyph glyph-name="odieresis" unicode="&#xf6;" 
d="M439 339q-156 157 -156 378q0 222 156 378q157 157 378 157q222 0 378 -157q157 -156 157 -378q0 -221 -157 -378q-156 -156 -378 -156q-221 0 -378 156zM310 1225q-210 -210 -210 -508q0 -297 210 -507t507 -210q298 0 508 210t210 507q0 298 -210 508t-508 210
q-297 0 -507 -210zM974 1578q0 22 -15 37q-16 16 -37 16q-22 0 -37 -16q-15 -15 -15 -37q0 -21 15 -37q15 -15 37 -15q21 0 37 15q15 16 15 37zM750 1541q15 16 15 37q0 22 -15 37q-15 16 -37 16t-37 -16q-15 -15 -15 -37q0 -21 15 -37q15 -15 37 -15t37 15z" />
    <glyph glyph-name="divide" unicode="&#xf7;" horiz-adv-x="826" 
d="M504 454q0 38 -26 65q-27 27 -65 27t-64 -27q-27 -27 -27 -65t27 -64q26 -27 64 -27t65 27q26 27 26 64zM504 976q0 38 -26 65q-27 26 -65 26t-64 -26q-27 -27 -27 -65t27 -64q26 -27 64 -27t65 27q26 26 26 64zM699 780q-26 27 -64 27h-444q-38 0 -64 -27
q-27 -27 -27 -65t27 -64q26 -27 64 -27h444q38 0 64 27q27 26 27 64t-27 65z" />
    <glyph glyph-name="oslash" unicode="&#xf8;" 
d="M1195 339q-156 -156 -378 -156q-169 0 -307 97l744 745q98 -138 98 -308q0 -221 -157 -378zM439 1095q157 157 378 157q170 0 308 -98l-745 -744q-97 138 -97 307q0 222 156 378zM1444 1435q-38 0 -65 -27l-123 -123q-193 150 -439 150q-297 0 -507 -210t-210 -508
q0 -245 150 -438l-123 -123q-27 -27 -27 -65t27 -64q26 -27 64 -27t65 27l123 123q193 -150 438 -150q298 0 508 210t210 507q0 246 -150 439l123 123q27 27 27 65q0 37 -27 64t-64 27z" />
    <glyph glyph-name="ugrave" unicode="&#xf9;" horiz-adv-x="1296" 
d="M722 1520q15 15 15 37q0 21 -15 37l-74 73q-15 16 -37 16t-37 -16q-15 -15 -15 -36q0 -22 15 -37l74 -74q15 -15 37 -15q21 0 37 15zM1040 1408q-27 -27 -27 -64v-796q0 -151 -107 -258t-258 -107t-258 107t-107 258v796q0 37 -27 64t-65 27t-64 -27q-27 -27 -27 -64
v-796q0 -227 161 -387q160 -161 387 -161q226 0 387 161q161 160 161 387v796q0 37 -27 64t-65 27q-37 0 -64 -27z" />
    <glyph glyph-name="uacute" unicode="&#xfa;" horiz-adv-x="1296" 
d="M722 1594q15 15 15 37q0 21 -15 36q-16 16 -37 16q-22 0 -37 -16l-74 -73q-15 -16 -15 -37q0 -22 15 -37t37 -15t37 15zM1040 1408q-27 -27 -27 -64v-796q0 -151 -107 -258t-258 -107t-258 107t-107 258v796q0 37 -27 64t-65 27t-64 -27q-27 -27 -27 -64v-796
q0 -227 161 -387q160 -161 387 -161q226 0 387 161q161 160 161 387v796q0 37 -27 64t-65 27q-37 0 -64 -27z" />
    <glyph glyph-name="ucircumflex" unicode="&#xfb;" horiz-adv-x="1296" 
d="M645 1559l46 -41q15 -13 35 -13q24 0 39 17q14 16 13 38q-1 21 -17 36l-83 73q-15 14 -36 14q-21 -1 -36 -16l-73 -73q-16 -16 -16 -37q0 -22 16 -37q15 -15 37 -15q21 0 36 15zM1040 1408q-27 -27 -27 -64v-796q0 -151 -107 -258t-258 -107t-258 107t-107 258v796
q0 37 -27 64t-65 27t-64 -27q-27 -27 -27 -64v-796q0 -227 161 -387q160 -161 387 -161q226 0 387 161q161 160 161 387v796q0 37 -27 64t-65 27q-37 0 -64 -27z" />
    <glyph glyph-name="udieresis" unicode="&#xfc;" horiz-adv-x="1296" 
d="M804 1583q0 21 -15 37q-15 15 -37 15q-21 0 -37 -15q-15 -16 -15 -37q0 -22 15 -37q16 -15 37 -15q22 0 37 15t15 37zM596 1583q0 21 -16 37q-15 15 -36 15q-22 0 -37 -15q-16 -16 -16 -37q0 -22 16 -37q15 -15 37 -15q21 0 36 15q16 15 16 37zM1040 1408
q-27 -27 -27 -64v-796q0 -151 -107 -258t-258 -107t-258 107t-107 258v796q0 37 -27 64t-65 27t-64 -27q-27 -27 -27 -64v-796q0 -227 161 -387q160 -161 387 -161q226 0 387 161q161 160 161 387v796q0 37 -27 64t-65 27q-37 0 -64 -27z" />
    <glyph glyph-name="yacute" unicode="&#xfd;" horiz-adv-x="1386" 
d="M767 1594q15 15 15 37q0 21 -15 36q-15 16 -37 16t-37 -16l-74 -73q-15 -16 -15 -37q0 -22 15 -37q16 -15 37 -15q22 0 37 15zM1169 1433q-37 -9 -57 -41l-419 -660l-418 660q-21 32 -57 41q-37 8 -69 -12q-32 -21 -41 -57q-8 -37 12 -69l482 -761v-443q0 -38 27 -64
q26 -27 64 -27t65 27q26 26 26 64v443l482 761q20 32 12 69q-8 36 -40 57q-32 20 -69 12z" />
    <glyph glyph-name="thorn" unicode="&#xfe;" horiz-adv-x="1035" 
d="M283 466v503h218q104 0 178 -74q73 -74 73 -178q0 -103 -73 -177q-74 -74 -178 -74h-218zM283 1151v193q0 37 -27 64t-65 27t-64 -27q-27 -27 -27 -64v-1253q0 -38 27 -64q26 -27 64 -27t65 27q27 26 27 64v193h218q179 0 307 127q127 127 127 306q0 180 -127 307
q-128 127 -307 127h-218z" />
    <glyph glyph-name="ydieresis" unicode="&#xff;" horiz-adv-x="1386" 
d="M850 1583q0 21 -16 37q-15 15 -36 15q-22 0 -37 -15q-16 -16 -16 -37q0 -22 16 -37q15 -15 37 -15q21 0 36 15q16 15 16 37zM641 1583q0 21 -15 37q-16 15 -37 15q-22 0 -37 -15q-15 -16 -15 -37q0 -22 15 -37t37 -15q21 0 37 15q15 15 15 37zM1169 1433q-37 -9 -57 -41
l-419 -660l-418 660q-21 32 -57 41q-37 8 -69 -12q-32 -21 -41 -57q-8 -37 12 -69l482 -761v-443q0 -38 27 -64q26 -27 64 -27t65 27q26 26 26 64v443l482 761q20 32 12 69q-8 36 -40 57q-32 20 -69 12z" />
    <glyph glyph-name="dotlessi" unicode="&#x131;" horiz-adv-x="383" 
d="M256 27q27 26 27 64v1253q0 37 -27 64t-65 27t-64 -27q-27 -27 -27 -64v-1253q0 -38 27 -64q26 -27 64 -27t65 27z" />
    <glyph glyph-name="quoteleft" unicode="&#x2018;" horiz-adv-x="330" 
d="M230 1365q0 27 -19 46t-46 19t-46 -19t-19 -46v-105q0 -27 19 -46t46 -19t46 19t19 46v105z" />
    <glyph glyph-name="quoteright" unicode="&#x2019;" horiz-adv-x="330" 
d="M230 1365q0 27 -19 46t-46 19t-46 -19t-19 -46v-105q0 -27 19 -46t46 -19t46 19t19 46v105z" />
    <glyph glyph-name="quotedblleft" unicode="&#x201c;" horiz-adv-x="513" 
d="M230 1365q0 27 -19 46t-46 19t-46 -19t-19 -46v-105q0 -27 19 -46t46 -19t46 19t19 46v105zM283 1260q0 -27 19 -46t46 -19t46 19t19 46v105q0 27 -19 46t-46 19t-46 -19t-19 -46v-105z" />
    <glyph glyph-name="quotedblright" unicode="&#x201d;" horiz-adv-x="513" 
d="M230 1365q0 27 -19 46t-46 19t-46 -19t-19 -46v-105q0 -27 19 -46t46 -19t46 19t19 46v105zM283 1260q0 -27 19 -46t46 -19t46 19t19 46v105q0 27 -19 46t-46 19t-46 -19t-19 -46v-105z" />
    <glyph glyph-name="guilsinglleft" unicode="&#x2039;" horiz-adv-x="645" 
d="M457 1039q-38 2 -66 -23l-261 -235q-30 -27 -30 -68t30 -68l261 -235q26 -23 61 -23q41 0 68 30q25 28 23 66t-30 63l-185 167l185 167q28 25 30 63t-23 66t-63 30z" />
    <glyph glyph-name="guilsinglright" unicode="&#x203a;" horiz-adv-x="646" 
d="M102 943q2 -38 30 -63l186 -167l-186 -167q-28 -25 -30 -63t23 -66q28 -30 68 -30q35 0 61 23l261 235q31 27 31 68t-31 68l-261 235q-28 25 -65 23q-38 -2 -64 -30q-25 -28 -23 -66z" />
    <glyph glyph-name="Euro" unicode="&#x20ac;" horiz-adv-x="1113" 
d="M986 1279q27 27 27 65q0 37 -27 64q-26 27 -64 27q-297 0 -508 -210q-122 -123 -175 -286h-48q-38 0 -64 -27q-27 -26 -27 -64t27 -65q26 -26 64 -26h14q-1 -21 -1 -40q0 -45 6 -91h-19q-38 0 -64 -27q-27 -26 -27 -64t27 -65q26 -26 64 -26h67q55 -132 156 -234
q211 -210 508 -210q38 0 64 27q27 26 27 64t-27 65q-26 27 -64 27q-144 0 -268 72q-120 69 -191 189h302q38 0 65 26q27 27 27 65t-27 64q-27 27 -65 27h-370q-8 45 -8 91q0 20 1 40h377q38 0 65 26q27 27 27 65t-27 64q-27 27 -65 27h-330q65 141 194 226q133 87 293 87
q38 0 64 27z" />
    <glyph glyph-name="minus" unicode="&#x2212;" horiz-adv-x="826" 
d="M699 780q-26 27 -64 27h-444q-38 0 -64 -27q-27 -27 -27 -65t27 -64q26 -27 64 -27h444q38 0 64 27q27 26 27 64t-27 65z" />
    <glyph glyph-name="uniF001" unicode="&#xf001;" horiz-adv-x="1073" 
 />
    <glyph glyph-name="uniF001" unicode="&#xfb01;" horiz-adv-x="1073" 
 />
    <glyph glyph-name="uniF002" unicode="&#xf002;" horiz-adv-x="1081" 
 />
    <glyph glyph-name="uniF002" unicode="&#xfb02;" horiz-adv-x="1081" 
 />
    </font>
</defs>
</svg>
